Recomendar temas para bajar

Discusión cerrada
  1. Avatar de jυѕтιcepoυrтoυѕ
    Registración
    Jan 2007
    Mensajes
    790

    Re: Recomendar temas para bajar

    ACDC - Thunderstruck (Crookers Remix)
    Bumblebeez - Rio (Crookers Bang Mix)
    • Me gusta
    Me gusta
    Cristiana / Club
     

  2. untz untz untz untz Avatar de TehRoot
    Registración
    Dec 2000
    Mensajes
    4,897
    Ubicación
    Olivos, Buenos Aires, Argentina

    Re: Recomendar temas para bajar

    Gus Gus - Need in me (Audiofly mix)
    • Me gusta
    Me gusta
    dac-SP¬TMU
     

  3. the funky homosapien Avatar de Manueek
    Registración
    May 2008
    Mensajes
    3,049
    Ubicación
    http://www.mediafire.com/?avsqae2zri25ow7, http://snortdrugs.tumblr.com/, Argentina

    Re: Recomendar temas para bajar

    Jack Johnson - Upside down
    Jack Johnson - Taylor
    Jack Johnson - Better together
    Jack Johnson - Banana pancakes
    Michael Bolton - When a man loves a woman
    Lionel Richie - Say you, say me
    Lionel Richie - Hello
    Daft Punk - Harder, better, faster, stronger
    Daft Punk - Alive
    Daft Punk - Da Funk
    Daft Punk - Face to Face
    Daft Punk - Digital love (este es mi favorito de daft punk, tiene letra y es bellísima)
    Daft Punk - One more time
    Daft Punk - Around the world
    Eminem - The real slim shady
    Eminem - When i'm gone
    John Mayer - Say
    John Mayer - Gravity
    Lighthouse Family - Lifted (jazz meets pop, es un tema ESPECTACULAR, lo recomiendo totalmente)
    Jason Mraz - I'm yours
    Jason Mraz - The remedy
    Jason Mraz - Wordplay
    Santana - Into the night
    Extreme - More than words
    Phil Collins - In the air tonight
    U2 feat. Mary J. Blige - One
    All 4 One - I swear
    AC/DC - Back in black
    AC/DC - Rock'n'roll train
    AC/DC - Highway to hell
    AC/DC - Thunderstuck
    Ozzy Osbourne - Dreamer

    esa es mi listita, hay más pero esos son los que más me gustan. Hay de todo, lentos, pop, rock, jazz, electro, de todo.
    • Me gusta
    Me gusta
    si estás leyendo esto entonces significa que sabes leer y eso está buenísimo! algunos no pueden hacerlo. FELICIDADES! you're beautiful.
     

  4. untz untz untz untz Avatar de TehRoot
    Registración
    Dec 2000
    Mensajes
    4,897
    Ubicación
    Olivos, Buenos Aires, Argentina

    Re: Recomendar temas para bajar

    jajaj me sacaste una sonrrisa
    • Me gusta
    Me gusta
    dac-SP¬TMU
     

  5. . Avatar de Natero
    Registración
    Dec 2002
    Mensajes
    2,052
    Ubicación
    Argentina

    Re: Recomendar temas para bajar

    Ron van den beuken - endless

    Como ya remarcaron mas arriba ,una joshita
    • Me gusta
    Me gusta
     

  6. Avatar de jυѕтιcepoυrтoυѕ
    Registración
    Jan 2007
    Mensajes
    790

    Re: Recomendar temas para bajar

    Mr Oizo - Flat Beat
    Mr Oizo - No Day Massacre
    Mr Oizo - Inside The Kidney Machine
    • Me gusta
    Me gusta
    Cristiana / Club
     

  7. untz untz untz untz Avatar de TehRoot
    Registración
    Dec 2000
    Mensajes
    4,897
    Ubicación
    Olivos, Buenos Aires, Argentina

    Re: Recomendar temas para bajar

    Citar Mensaje original enviado por TehRoot Ver Mensaje
    Mr. Oizo - Flat beat jajaja que buen video
    - se lo habia puesto.


    Sascha funke - the ballerina
    • Me gusta
    Me gusta
    dac-SP¬TMU
     

  8. Avatar de Radino
    Registración
    Oct 2005
    Mensajes
    1,598

    Re: Recomendar temas para bajar

    mmm extraño post de Osso, Nono o dios666, igual gracias a todos los q intentan aportar, aca va algo de loo q vengo bajando esta noche

    Format B - Edding 850

    Simuck - Wingfields
    Ray Calman - Kashimir
    Chris Cargo - Cityscape
    Chris Cargo - You R
    Organic Function - cmetec
    Junk Science - my name is jacques

    Heatbeat - Resaka

    GMS - soundwave (psy trannce)
    bio tonic - antarion (psy)
    • Me gusta
    Me gusta
    "Hasta el Ruido mas insignificante, si Expresa un Sentimiento, Se convierte en Musica"-THE BINARY
    "Podemos Fatigarnos de Actuar y aun de Pensar, Pero Nunca Nos Fatigaremos de Amar"-A.COMTE
     

  9. Avatar de - RemY -
    Registración
    Nov 2007
    Mensajes
    4,076
    Ubicación
    Argentina

    Re: Recomendar temas para bajar

    I_Love_Techno_2008_(Mixed_By_Boys_Noize)-2008-SSR

    TRACK 09 AUDIO
    TITLE "Lets Git It On"
    PERFORMER "MMM"

    INDEX 01 28:56:51
    TRACK 10 AUDIO
    TITLE "Nous Sommes MMM (Live Version)"
    PERFORMER "MMM"

    INDEX 01 30:58:00
    TRACK 11 AUDIO
    TITLE "Get Up (Diplo Remix)"
    PERFORMER "Bingo Players"

    INDEX 00 32:41:65
    INDEX 01 32:41:68
    TRACK 12 AUDIO
    TITLE "Positif"
    PERFORMER "Mr. Oizo"

    INDEX 00 34:24:46
    INDEX 01 34:24:58
    TRACK 13 AUDIO
    TITLE "Wake Up"
    PERFORMER "Les Petits Pilous"

    INDEX 00 36:33:33
    INDEX 01 36:33:39
    TRACK 14 AUDIO
    TITLE "Highly Explicit (Brodinski Remix)"
    PERFORMER "Mixhell"

    INDEX 00 39:33:30
    INDEX 01 39:33:31
    • Me gusta
    Me gusta
     

  10. Avatar de -=SRS=-
    Registración
    Mar 2006
    Mensajes
    875

    Re: Recomendar temas para bajar

    Del año pasado

    Rockers Hi-Fi - Push Push ( M.A.N.D.Y. Pusher Remix)
    • Me gusta
    Me gusta
     

  11. Avatar de jυѕтιcepoυrтoυѕ
    Registración
    Jan 2007
    Mensajes
    790

    Re: Recomendar temas para bajar

    Proxy - Decoy
    • Me gusta
    Me gusta
    Cristiana / Club
     

  12. Avatar de -=SRS=-
    Registración
    Mar 2006
    Mensajes
    875

    Re: Recomendar temas para bajar

    Late Of The Pier - Focker (Boys Noize Terror Remix)
    • Me gusta
    Me gusta
     

  13. Avatar de jυѕтιcepoυrтoυѕ
    Registración
    Jan 2007
    Mensajes
    790

    Re: Recomendar temas para bajar

    SymbolOne - Love Juice (Danger Remix)
    • Me gusta
    Me gusta
    Cristiana / Club
     

  14. untz untz untz untz Avatar de TehRoot
    Registración
    Dec 2000
    Mensajes
    4,897
    Ubicación
    Olivos, Buenos Aires, Argentina

    Re: Recomendar temas para bajar

    Autechre - Kalpol intro
    • Me gusta
    Me gusta
    dac-SP¬TMU
     

  15. Avatar de -=SRS=-
    Registración
    Mar 2006
    Mensajes
    875

    Re: Recomendar temas para bajar

    Outhere Brothers - Enjoy (Crookers Remix)
    • Me gusta
    Me gusta
     

  16. Compartí este Tema:
    • Vistas: 88012
    • Mensajes: 1657
    Seguí este Tema: Suscribite
Discusión cerrada